BRRip2B720p - Now You See Me 2 (2016) [BRRip 720p/Subtitulado] [Multi/MG]

Sinopsis:
Un año después de despistar al FBI y conseguir la admiración del público con sus espectáculos mentales, los cuatro jinetes vuelven a la luz pública, pero un nuevo enemigo se propone arruinar su golpe más espectacular y peligroso hasta la fecha... Secuela de "Now You See Me" de 2013.

Ficha Técnica:
Título original: Now You See Me 2
Título Latino: Los ilusionistas 2
Título de España: Ahora me ves 2
Año: 2016
Duración: 129 min.
País: Estados Unidos
Director: Jon Chu
Guión: Ed Solomon, Pete Chiarelli
Música: Brian Tyler
Fotografía: Peter Deming
Reparto: Mark Ruffalo, Woody Harrelson, Jesse Eisenberg, Isla Fisher, Dave Franco, Morgan Freeman, Michael Caine, Daniel Radcliffe, Lizzy Caplan, Jay Chou
Productora: Lionsgate / Summit Entertainment
Género: Thriller. Comedia | Magia. Secuela

Trailer
:


Datos Técnicos:
Video: BRRip 720p x264 1280x720
Audio: Ingles AC3 5.1 320Kbps
Subtitulos: Español
Peso: 1.65 GB

Código:
General
Unique ID                                : 231565112971755228952461186177581221084 (0xAE35D18A2F1F8B85978BF9871F6C84DC)
Complete name                            : Now.You.See.Me.720p.VOSE.mkv
Format                                   : Matroska
Format version                           : Version 4 / Version 2
File size                                : 1.65 GiB
Duration                                 : 2h 9mn
Overall bit rate                         : 1 821 Kbps
Encoded date                             : UTC 2016-08-20 20:47:03
Writing application                      : mkvmerge v8.5.1 ('Where you lead I will follow') 32bit
Writing library                          : libebml v1.3.3 + libmatroska v1.4.4
DURATION                                 : 02:00:27.488000000
NUMBER_OF_FRAMES                         : 2353
NUMBER_OF_BYTES                          : 82289
_STATISTICS_WRITING_APP                  : mkvmerge v8.5.1 ('Where you lead I will follow') 32bit
_STATISTICS_WRITING_DATE_UTC             : 2016-08-20 20:47:03
_STATISTICS_TAGS                         : BPS DURATION NUMBER_OF_FRAMES NUMBER_OF_BYTES

Video
ID                                       : 1
Format                                   : AVC
Format/Info                              : Advanced Video Codec
Format profile                           : High@L4
Format settings, CABAC                   : Yes
Format settings, ReFrames                : 4 frames
Codec ID                                 : V_MPEG4/ISO/AVC
Duration                                 : 2h 9mn
Bit rate                                 : 1 500 Kbps
Width                                    : 1 280 pixels
Height                                   : 720 pixels
Display aspect ratio                     : 16:9
Frame rate mode                          : Constant
Frame rate                               : 24.000 fps
Color space                              : YUV
Chroma subsampling                       : 4:2:0
Bit depth                                : 8 bits
Scan type                                : Progressive
Bits/(Pixel*Frame)                       : 0.068
Stream size                              : 1.33 GiB (80%)
Writing library                          : x264 core 142 r2479 dd79a61
Encoding settings                        : cabac=1 / ref=1 / deblock=1:-1:-1 / analyse=0x3:0x113 / me=hex / subme=2 / psy=1 / psy_rd=1.00:0.15 / mixed_ref=0 / me_range=16 / chroma_me=1 / trellis=0 / 8x8dct=1 / cqm=0 / deadzone=21,11 / fast_pskip=1 / chroma_qp_offset=0 / threads=12 / lookahead_threads=4 / sliced_threads=0 / nr=0 / decimate=1 / interlaced=0 / bluray_compat=0 / constrained_intra=0 / bframes=3 / b_pyramid=2 / b_adapt=1 / b_bias=0 / direct=1 / weightb=1 / open_gop=0 / weightp=1 / keyint=240 / keyint_min=24 / scenecut=40 / intra_refresh=0 / rc_lookahead=10 / rc=2pass / mbtree=1 / bitrate=1500 / ratetol=1.0 / qcomp=0.60 / qpmin=0 / qpmax=69 / qpstep=4 / cplxblur=20.0 / qblur=0.5 / vbv_maxrate=25000 / vbv_bufsize=31250 / nal_hrd=none / filler=0 / ip_ratio=1.40 / aq=1:1.00
Default                                  : Yes
Forced                                   : No
Color range                              : Limited
Color primaries                          : BT.709
Transfer characteristics                 : BT.709
Matrix coefficients                      : BT.709

Audio
ID                                       : 2
Format                                   : AC-3
Format/Info                              : Audio Coding 3
Mode extension                           : CM (complete main)
Format settings, Endianness              : Big
Codec ID                                 : A_AC3
Duration                                 : 2h 9mn
Bit rate mode                            : Constant
Bit rate                                 : 320 Kbps
Channel(s)                               : 6 channels
Channel positions                        : Front: L C R, Side: L R, LFE
Sampling rate                            : 48.0 KHz
Compression mode                         : Lossy
Stream size                              : 296 MiB (18%)
Language                                 : English
Default                                  : Yes
Forced                                   : No

Text
ID                                       : 3
Format                                   : UTF-8
Codec ID                                 : S_TEXT/UTF8
Codec ID/Info                            : UTF-8 Plain Text
Language                                 : Spanish
Default                                  : Yes
Forced                                   : No


Capturas
:
b119fff6aab04caa9c11c1b93cd260f7 - Now You See Me 2 (2016) [BRRip 720p/Subtitulado] [Multi/MG]
422f1e8ea6734bc4ad0c818fcc79c5b7 - Now You See Me 2 (2016) [BRRip 720p/Subtitulado] [Multi/MG]

Descargar Gratis
:

Código:
Uploaded |  MEGA | Mas +

http://tomas01.com/index.php?v=6783