9 - Nacida para ganar (2016) [BDRip m1080p/Castellano] [España] [Multi/MG]

Sinopsis:
La vida parece anclada en el tiempo para Encarna (Alexandra Jimenez) en Móstoles, su ciudad. El mismo trabajo desde la adolescencia, el mismo novio, y pocas perspectivas de que la cosa pueda cambiar. Al reencontrarse con María Dolores (Cristina Castaño), su inseparable amiga en el instituto, su vida da un vuelco. Le propone entrar en un negocio revolucionario de venta piramidal que le hará rica en muy poco tiempo y la convertirá en la persona que siempre ha querido ser.

Ficha Técnica:
Título original: Nacida para ganar
Año: 2016
Duración: 95 min.
País: España
Director: Vicente Villanueva
Guión: Vicente Villanueva
Música: Antonio Escobar
Fotografía: Aitor Mantxola
Reparto: Alexandra Jiménez, Cristina Castaño, Victoria Abril, José Manuel Cervino, Ana María Ayala, Trinidad Iglesias, Luisber Santiago, Susi Bodega, Luisi Bodega, Vicky Bodega
Productora: Tornasol Films / Hernández y Fernández P.C. / Mistery Producciones
Género: Comedia

Trailer
:


Datos Técnicos:
Video: BDRip m1080p x264 1920x804
Audio: Castellano AC3 5.1 448Kbps
Subtitulos: No
Peso: 3.63 GB

Código:
General
Unique ID                                : 225758083533390139661733131792978679795 (0xA9D76CE2319B3F05A7F0643B621E17F3)
Complete name                            : Nacida.para.ganar.m1080p.Castellano.mkv
Format                                   : Matroska
Format version                           : Version 4 / Version 2
File size                                : 3.63 GiB
Duration                                 : 1h 35mn
Overall bit rate                         : 5 449 Kbps
Encoded date                             : UTC 2016-09-02 01:11:01
Writing application                      : mkvmerge v8.5.1 ('Where you lead I will follow') 32bit
Writing library                          : libebml v1.3.3 + libmatroska v1.4.4
DURATION                                 : 00:00:40.000000000
NUMBER_OF_FRAMES                         : 1
NUMBER_OF_BYTES                          : 38
_STATISTICS_WRITING_APP                  : mkvmerge v8.5.1 ('Where you lead I will follow') 32bit
_STATISTICS_WRITING_DATE_UTC             : 2016-09-02 01:11:01
_STATISTICS_TAGS                         : BPS DURATION NUMBER_OF_FRAMES NUMBER_OF_BYTES

Video
ID                                       : 1
Format                                   : AVC
Format/Info                              : Advanced Video Codec
Format profile                           : High@L4.1
Format settings, CABAC                   : Yes
Format settings, ReFrames                : 4 frames
Codec ID                                 : V_MPEG4/ISO/AVC
Duration                                 : 1h 35mn
Bit rate                                 : 5 000 Kbps
Width                                    : 1 920 pixels
Height                                   : 804 pixels
Display aspect ratio                     : 2.40:1
Frame rate mode                          : Constant
Frame rate                               : 24.000 fps
Color space                              : YUV
Chroma subsampling                       : 4:2:0
Bit depth                                : 8 bits
Scan type                                : Progressive
Bits/(Pixel*Frame)                       : 0.135
Stream size                              : 3.26 GiB (90%)
Writing library                          : x264 core 142 r2479 dd79a61
Encoding settings                        : cabac=1 / ref=1 / deblock=1:-1:-1 / analyse=0x3:0x113 / me=hex / subme=2 / psy=1 / psy_rd=1.00:0.15 / mixed_ref=0 / me_range=16 / chroma_me=1 / trellis=0 / 8x8dct=1 / cqm=0 / deadzone=21,11 / fast_pskip=1 / chroma_qp_offset=0 / threads=48 / lookahead_threads=6 / sliced_threads=0 / nr=0 / decimate=1 / interlaced=0 / bluray_compat=0 / constrained_intra=0 / bframes=3 / b_pyramid=2 / b_adapt=1 / b_bias=0 / direct=1 / weightb=1 / open_gop=0 / weightp=1 / keyint=240 / keyint_min=24 / scenecut=40 / intra_refresh=0 / rc_lookahead=10 / rc=2pass / mbtree=1 / bitrate=5000 / ratetol=1.0 / qcomp=0.60 / qpmin=0 / qpmax=69 / qpstep=4 / cplxblur=20.0 / qblur=0.5 / vbv_maxrate=62500 / vbv_bufsize=78125 / nal_hrd=none / filler=0 / ip_ratio=1.40 / aq=1:1.00
Default                                  : Yes
Forced                                   : No
Color range                              : Limited
Color primaries                          : BT.709
Transfer characteristics                 : BT.709
Matrix coefficients                      : BT.709
DURATION                                 : 01:35:19.584000000
NUMBER_OF_FRAMES                         : 137270
NUMBER_OF_BYTES                          : 3573901444
_STATISTICS_WRITING_APP                  : mkvmerge v8.5.1 ('Where you lead I will follow') 32bit
_STATISTICS_WRITING_DATE_UTC             : 2016-09-02 01:11:01
_STATISTICS_TAGS                         : BPS DURATION NUMBER_OF_FRAMES NUMBER_OF_BYTES

Audio
ID                                       : 2
Format                                   : AC-3
Format/Info                              : Audio Coding 3
Mode extension                           : CM (complete main)
Format settings, Endianness              : Big
Codec ID                                 : A_AC3
Duration                                 : 1h 35mn
Bit rate mode                            : Constant
Bit rate                                 : 448 Kbps
Channel(s)                               : 6 channels
Channel positions                        : Front: L C R, Side: L R, LFE
Sampling rate                            : 48.0 KHz
Compression mode                         : Lossy
Delay relative to video                  : -83ms
Stream size                              : 305 MiB (8%)
Language                                 : Spanish
Default                                  : Yes
Forced                                   : No

Text
ID                                       : 3
Format                                   : UTF-8
Codec ID                                 : S_TEXT/UTF8
Codec ID/Info                            : UTF-8 Plain Text
Default                                  : Yes
Forced                                   : No


Capturas
:
e0b97b85e4214bb3a7fce20d7dd04b9f - Nacida para ganar (2016) [BDRip m1080p/Castellano] [España] [Multi/MG]
997e8f024cbb4d978e9fe0747d4ee013 - Nacida para ganar (2016) [BDRip m1080p/Castellano] [España] [Multi/MG]

Descargar Gratis
:

Código:
Uploaded |  MEGA | Mas +

http://tomas01.com/index.php?v=7005