5 - El olivo (2016) [BDRip m720p/Castellano] [España] [Multi/MG]

Sinopsis:
Alma tiene 20 años y adora a su abuelo, un hombre que lleva años sin hablar. Cuando el anciano se niega también a comer, la chica decide recuperar el árbol milenario que la familia vendió contra su voluntad. Pero para ello, necesita contar con la ayuda de su tío, una víctima de la crisis, de su amigo Rafa y de todo el pueblo. El problema es saber en qué lugar de Europa está el olivo.

Ficha Técnica:
Título original: El olivo
Año: 2016
Duración: 100 min.
País: España
Director: Icíar Bollaín
Guión: Paul Laverty
Música: Pascal Gaigne
Fotografía: Sergi Gallardo
Reparto: Anna Castillo, Javier Gutiérrez, Pep Ambrós, Manuel Cucala, Miguel Ángel Aladrén
Productora: Coproducción España-Alemania; Morena Films / Match Factory Productions
Género: Drama

Trailer
:


Datos Técnicos:
Video: WEB-DL m720p x264 1280x542
Audio: Castellano AC3 5.1 448Kbps
Subtitulos: No
Peso: 2.41 GB

Código:
General
Unique ID                                : 242570834250120947352566660676674924060 (0xB67D717E3031FDA29563AA4550C42E1C)
Complete name                            : El.olivo.m720p.Castellano.mkv
Format                                   : Matroska
Format version                           : Version 4 / Version 2
File size                                : 2.41 GiB
Duration                                 : 1h 34mn
Overall bit rate                         : 3 652 Kbps
Encoded date                             : UTC 2016-10-02 11:28:01
Writing application                      : mkvmerge v8.5.1 ('Where you lead I will follow') 32bit
Writing library                          : libebml v1.3.3 + libmatroska v1.4.4
DURATION                                 : 00:00:40.000000000
NUMBER_OF_FRAMES                         : 1
NUMBER_OF_BYTES                          : 38
_STATISTICS_WRITING_APP                  : mkvmerge v8.5.1 ('Where you lead I will follow') 32bit
_STATISTICS_WRITING_DATE_UTC             : 2016-10-02 11:28:01
_STATISTICS_TAGS                         : BPS DURATION NUMBER_OF_FRAMES NUMBER_OF_BYTES

Video
ID                                       : 1
Format                                   : AVC
Format/Info                              : Advanced Video Codec
Format profile                           : High@L4.1
Format settings, CABAC                   : Yes
Format settings, ReFrames                : 4 frames
Codec ID                                 : V_MPEG4/ISO/AVC
Duration                                 : 1h 34mn
Bit rate                                 : 3 200 Kbps
Width                                    : 1 280 pixels
Height                                   : 542 pixels
Display aspect ratio                     : 2.35:1
Frame rate mode                          : Constant
Frame rate                               : 25.000 fps
Color space                              : YUV
Chroma subsampling                       : 4:2:0
Bit depth                                : 8 bits
Scan type                                : Progressive
Bits/(Pixel*Frame)                       : 0.185
Stream size                              : 2.07 GiB (86%)
Writing library                          : x264 core 142 r2479 dd79a61
Encoding settings                        : cabac=1 / ref=1 / deblock=1:-1:-1 / analyse=0x3:0x113 / me=hex / subme=2 / psy=1 / psy_rd=1.00:0.15 / mixed_ref=0 / me_range=16 / chroma_me=1 / trellis=0 / 8x8dct=1 / cqm=0 / deadzone=21,11 / fast_pskip=1 / chroma_qp_offset=0 / threads=48 / lookahead_threads=4 / sliced_threads=0 / nr=0 / decimate=1 / interlaced=0 / bluray_compat=0 / constrained_intra=0 / bframes=3 / b_pyramid=2 / b_adapt=1 / b_bias=0 / direct=1 / weightb=1 / open_gop=0 / weightp=1 / keyint=250 / keyint_min=25 / scenecut=40 / intra_refresh=0 / rc_lookahead=10 / rc=2pass / mbtree=1 / bitrate=3200 / ratetol=1.0 / qcomp=0.60 / qpmin=0 / qpmax=69 / qpstep=4 / cplxblur=20.0 / qblur=0.5 / vbv_maxrate=62500 / vbv_bufsize=78125 / nal_hrd=none / filler=0 / ip_ratio=1.40 / aq=1:1.00
Default                                  : Yes
Forced                                   : No
Color range                              : Limited
Color primaries                          : BT.709
Transfer characteristics                 : BT.709
Matrix coefficients                      : BT.709
DURATION                                 : 01:34:30.080000000
NUMBER_OF_FRAMES                         : 141752
NUMBER_OF_BYTES                          : 2269718340
_STATISTICS_WRITING_APP                  : mkvmerge v8.5.1 ('Where you lead I will follow') 32bit
_STATISTICS_WRITING_DATE_UTC             : 2016-10-02 11:28:01
_STATISTICS_TAGS                         : BPS DURATION NUMBER_OF_FRAMES NUMBER_OF_BYTES

Audio
ID                                       : 2
Format                                   : AC-3
Format/Info                              : Audio Coding 3
Mode extension                           : CM (complete main)
Format settings, Endianness              : Big
Codec ID                                 : A_AC3
Duration                                 : 1h 34mn
Bit rate mode                            : Constant
Bit rate                                 : 448 Kbps
Channel(s)                               : 6 channels
Channel positions                        : Front: L C R, Side: L R, LFE
Sampling rate                            : 48.0 KHz
Compression mode                         : Lossy
Delay relative to video                  : -80ms
Stream size                              : 303 MiB (12%)
Language                                 : Spanish
Default                                  : Yes
Forced                                   : No

Text
ID                                       : 3
Format                                   : UTF-8
Codec ID                                 : S_TEXT/UTF8
Codec ID/Info                            : UTF-8 Plain Text
Default                                  : Yes
Forced                                   : No


Capturas
:
3a9e47ce78ac495884eae7706a882827 - El olivo (2016) [BDRip m720p/Castellano] [España] [Multi/MG]
98659617ae9d40c3ae5e88374b94397a - El olivo (2016) [BDRip m720p/Castellano] [España] [Multi/MG]

847dc53acad246698b4ae26481698206 - El olivo (2016) [BDRip m720p/Castellano] [España] [Multi/MG]

Descargar Gratis
:

Código:
Uploaded |  MEGA | Mas +

http://tomas01.com/index.php?v=7417