BRRip2B720p - El pregn (2016) [BDRip m720p/Castellano] [Espaa] [Multi/MG]

Sinopsis:
Juraron que no se veran las caras nunca ms pero, por una cantidad razonable de dinero, estn dispuestos a hacer una excepcin. Los hermanos Osorio, glorias olvidadas de la msica electrnica de los 90 con el grupo Supergalactic, aos despus han tocado fondo, totalmente olvidados. Cuando les contratan para ir juntos a dar el pregn en su pueblo natal no imaginan la que se les viene encima. Sus intenciones de llegar, ganar el dinero y salir corriendo se ven truncadas por planes secretos, hordas de fans y tradiciones ancestrales.

Ficha Tcnica:
Ttulo original: El pregn
Ao: 2016
Duracin: 85 min.
Pas: Espaa
Director: Dani de la Orden
Guin: Diego San Jos, David Serrano
Fotografa: Isaac Vila
Reparto: Berto Romero, Andreu Buenafuente, Jorge Sanz, Beln Cuesta, Goyo Jimnez, Jssica Ross, Josep Maria Riera
Productora: Atresmedia Cine / El Terrat
Gnero: Comedia

Criticas:
Cdigo:
http://www.filmaffinity.com/es/reviews/1/380987.html?orderby=1


Trailer
:


Datos Tcnicos:
Video: BDRip m720p x264 1280x536
Audio: Castellano AC3 5.1 448Kbps
Subtitulos: No
Peso: 2.00 GB

Cdigo:
General
Unique ID                                : 234102501186134529156643564486855727817 (0xB01E807000CEA5CCB2598886D4A79AC9)
Complete name                            : El.pregon.m720p.Castellano.mkv
Format                                   : Matroska
Format version                           : Version 4 / Version 2
File size                                : 2.00 GiB
Duration                                 : 1h 18mn
Overall bit rate                         : 3 650 Kbps
Encoded date                             : UTC 2016-07-02 13:36:41
Writing application                      : mkvmerge v8.5.1 ('Where you lead I will follow') 32bit
Writing library                          : libebml v1.3.3 + libmatroska v1.4.4

Video
ID                                       : 1
Format                                   : AVC
Format/Info                              : Advanced Video Codec
Format profile                           : High@L4.1
Format settings, CABAC                   : Yes
Format settings, ReFrames                : 4 frames
Codec ID                                 : V_MPEG4/ISO/AVC
Duration                                 : 1h 18mn
Bit rate                                 : 3 200 Kbps
Width                                    : 1 280 pixels
Height                                   : 536 pixels
Display aspect ratio                     : 2.40:1
Frame rate mode                          : Constant
Frame rate                               : 24.000 fps
Color space                              : YUV
Chroma subsampling                       : 4:2:0
Bit depth                                : 8 bits
Scan type                                : Progressive
Bits/(Pixel*Frame)                       : 0.194
Stream size                              : 1.71 GiB (86%)
Writing library                          : x264 core 142 r2479 dd79a61
Encoding settings                        : cabac=1 / ref=1 / deblock=1:-3:-3 / analyse=0x3:0x113 / me=hex / subme=2 / psy=1 / psy_rd=1.00:0.15 / mixed_ref=0 / me_range=16 / chroma_me=1 / trellis=0 / 8x8dct=1 / cqm=0 / deadzone=21,11 / fast_pskip=1 / chroma_qp_offset=0 / threads=12 / lookahead_threads=4 / sliced_threads=0 / nr=0 / decimate=1 / interlaced=0 / bluray_compat=0 / constrained_intra=0 / bframes=3 / b_pyramid=2 / b_adapt=1 / b_bias=0 / direct=1 / weightb=1 / open_gop=0 / weightp=1 / keyint=240 / keyint_min=24 / scenecut=40 / intra_refresh=0 / rc_lookahead=10 / rc=2pass / mbtree=1 / bitrate=3200 / ratetol=1.0 / qcomp=0.60 / qpmin=0 / qpmax=69 / qpstep=4 / cplxblur=20.0 / qblur=0.5 / vbv_maxrate=62500 / vbv_bufsize=78125 / nal_hrd=none / filler=0 / ip_ratio=1.40 / aq=1:1.00
Language                                 : Spanish
Default                                  : Yes
Forced                                   : No
Color primaries                          : BT.709
Transfer characteristics                 : BT.709
Matrix coefficients                      : BT.709

Audio
ID                                       : 2
Format                                   : AC-3
Format/Info                              : Audio Coding 3
Mode extension                           : CM (complete main)
Format settings, Endianness              : Big
Codec ID                                 : A_AC3
Duration                                 : 1h 18mn
Bit rate mode                            : Constant
Bit rate                                 : 448 Kbps
Channel(s)                               : 6 channels
Channel positions                        : Front: L C R, Side: L R, LFE
Sampling rate                            : 48.0 KHz
Bit depth                                : 16 bits
Compression mode                         : Lossy
Delay relative to video                  : -83ms
Stream size                              : 251 MiB (12%)
Language                                 : Spanish
Default                                  : Yes
Forced                                   : No

Text
ID                                       : 3
Format                                   : UTF-8
Codec ID                                 : S_TEXT/UTF8
Codec ID/Info                            : UTF-8 Plain Text
Default                                  : Yes
Forced                                   : No


Capturas
:
e4b0a70a29d84f2b177353eaffc4350b - El pregn (2016) [BDRip m720p/Castellano] [Espaa] [Multi/MG]
36aff14f216f9b03065f1f712ffd2bcc - El pregn (2016) [BDRip m720p/Castellano] [Espaa] [Multi/MG]

----------------------------------------------------------------------------------------------------
Si se cae algn link, o tienes problemas con el post, mndame un MP, si slo lo comentas corres el riesgo de que nunca me d cuenta
----------------------------------------------------------------------------------------------------

Descargar Gratis
:

Cdigo:
Uploaded |  MEGA | Mas +

http://tomas01.com/index.php?v=6063