the wall 550853778 mmed - The Wall [2017] [Latino] [1080p] [Un link] [UB+]

4001ed1fb97b97f9d603fc67bf7aca86o - The Wall [2017] [Latino] [1080p] [Un link] [UB+]

Dos francotiradores estadounidenses quedan atrapados en una zona solitaria del desierto de Irak durante una misión. Cuando son atacados intentan ponerse en contacto con sus compañeros, pero al otro lado del teléfono solo se oye a un tirador iraquí que les deja claro que quiere jugar al gato y al ratón. Su única protección es un pequeño muro de ladrillos que separa al atacante de sus víctimas.

a08d99578407bb6d8c5d8db03a842144o - The Wall [2017] [Latino] [1080p] [Un link] [UB+]

https://www.youtube.com/watch?v=QufC-l9P8_8

a5b23d5e1e6cbe1b8b59b9d555a4bbc7o - The Wall [2017] [Latino] [1080p] [Un link] [UB+]

Título original: The Wall
Año: 2017
Duración: 81 min.
País: Estados Unidos Estados Unidos
Dirección: Doug Liman
Guion: Dwain Worrell
Fotografía: Roman Vasyanov
Reparto: Aaron Johnson, John Cena, Spencer Thomas, Laith Nakli
Productora: Amazon Video / Big Indie Pictures / Pictures in a Row
Género: Bélico | Guerra de Iraq

466ed64e9129779a06c941343e8baa56o - The Wall [2017] [Latino] [1080p] [Un link] [UB+]

General
Unique ID : 214879885497090283954561549436104079513 (0xA1A85C4FCAD796B892FD04C5CE55F899)
Complete name : The Wall [1080p][Latino].mkv
Format : Matroska
Format version : Version 4 / Version 2
File size : 3.44 GiB
Duration : 1 h 29 min
Overall bit rate : 5 471 kb/s
Encoded date : UTC 2018-01-11 14:59:47
Writing application : mkvmerge v6.4.1 ('Omega Point') built on Sep 16 2013 22:05:10
Writing library : libebml v1.3.0 + libmatroska v1.4.1

Video
ID : 1
Format : AVC
Format/Info : Advanced Video Codec
Format profile : High@L4.1
Format settings : CABAC / 4 Ref Frames
Format settings, CABAC : Yes
Format settings, RefFrames : 4 frames
Codec ID : V_MPEG4/ISO/AVC
Duration : 1 h 29 min
Bit rate : 5 280 kb/s
Width : 1 920 pixels
Height : 800 pixels
Display aspect ratio : 2.40:1
Frame rate mode : Constant
Frame rate : 23.976 (24000/1001) FPS
Color space : YUV
Chroma subsampling : 4:2:0
Bit depth : 8 bits
Scan type : Progressive
Bits/(Pixel*Frame) : 0.143
Stream size : 3.25 GiB (95%)
Writing library : x264 core 146 r2538 121396c
Encoding settings : cabac=1 / ref=3 / deblock=1:-1:-1 / analyse=0x3:0x113 / me=hex / subme=7 / psy=1 / psy_rd=1.00:0.15 / mixed_ref=1 / me_range=16 / chroma_me=1 / trellis=2 / 8x8dct=1 / cqm=0 / deadzone=21,11 / fast_pskip=1 / chroma_qp_offset=-3 / threads=6 / lookahead_threads=1 / sliced_threads=0 / nr=0 / decimate=1 / interlaced=0 / bluray_compat=0 / constrained_intra=0 / bframes=3 / b_pyramid=2 / b_adapt=1 / b_bias=0 / direct=1 / weightb=1 / open_gop=0 / weightp=2 / keyint=240 / keyint_min=23 / scenecut=40 / intra_refresh=0 / rc_lookahead=40 / rc=2pass / mbtree=1 / bitrate=5280 / ratetol=1.0 / qcomp=0.80 / qpmin=0 / qpmax=69 / qpstep=4 / cplxblur=20.0 / qblur=0.5 / vbv_maxrate=62500 / vbv_bufsize=78125 / nal_hrd=none / filler=0 / ip_ratio=1.40 / aq=1:1.00
Default : Yes
Forced : No

Audio
ID : 2
Format : AC-3
Format/Info : Audio Coding 3
Format settings, Endianness : Big
Codec ID : A_AC3
Duration : 1 h 29 min
Bit rate mode : Constant
Bit rate : 192 kb/s
Channel(s) : 2 channels
Channel positions : Front: L R
Sampling rate : 48.0 kHz
Frame rate : 31.250 FPS (1536 SPF)
Bit depth : 16 bits
Compression mode : Lossy
Delay relative to video : 500 ms
Stream size : 123 MiB (4%)
Language : Spanish
Service kind : Complete Main
Default : Yes
Forced : No

2cc620411698bac1e3b28b2ad074fb4fo - The Wall [2017] [Latino] [1080p] [Un link] [UB+]

df49e704cc44736baf121eb3ef62fc0co - The Wall [2017] [Latino] [1080p] [Un link] [UB+]

8f316b67e8f3a1523baec7fc4c5eed67o - The Wall [2017] [Latino] [1080p] [Un link] [UB+]

Uptobox | Uploaded | Openload | Mexashare | Up-4

http://binbox.io/RZEp5#S4TtZCIA