hereditary 551635712 mmed - Legado del Diablo [2018] [Latino] [BRScr] [Un link] [UB-1F+]

4001ed1fb97b97f9d603fc67bf7aca86o - Legado del Diablo [2018] [Latino] [BRScr] [Un link] [UB-1F+]

Cosas extrañas comienzan a suceder en casa de los Graham tras la muerte de la abuela y matriarca, que deja en herencia su casa a su hija Annie. Annie Graham, una galerista casada y con dos hijos, no tuvo una infancia demasiado feliz junto a su madre, y cree que la muerte de ésta puede hacer que pase página. Pero todo se complica cuando su hija menor comienza a ver figuras fantasmales, que también empiezan a aparecer ante su hermano.

a08d99578407bb6d8c5d8db03a842144o - Legado del Diablo [2018] [Latino] [BRScr] [Un link] [UB-1F+]

https://www.youtube.com/watch?v=CB-1JtJyOAk

a5b23d5e1e6cbe1b8b59b9d555a4bbc7o - Legado del Diablo [2018] [Latino] [BRScr] [Un link] [UB-1F+]

Título original: Hereditary
Año: 2018
Duración: 126 min.
País: Estados Unidos Estados Unidos
Dirección: Ari Aster
Guion: Ari Aster
Música: Colin Stetson
Fotografía: Pawel Pogorzelski
Reparto: Toni Collette, Gabriel Byrne, Alex Wolff, Milly Shapiro, Ann Dowd
Productora: PalmStar Entertainment / Windy Hill Pictures. Distribuida por A24
Género: Terror | Casas encantadas. Fantasmas. Sobrenatural. Cine independiente USA. Sectas

466ed64e9129779a06c941343e8baa56o - Legado del Diablo [2018] [Latino] [BRScr] [Un link] [UB-1F+]

General
Complete name : Hereditary.BRS.Castellano.avi
Format : AVI
Format/Info : Audio Video Interleave
File size : 1.89 GiB
Duration : 2 h 7 min
Overall bit rate : 2 127 kb/s
Writing application : VirtualDubMod 1.5.10.2 (build 2542/release)
Writing library : VirtualDubMod build 2542/release

Video
ID : 0
Format : MPEG-4 Visual
Format profile : Advanced Simple@L5
Format settings : BVOP1
Format settings, BVOP : 1
Format settings, QPel : No
Format settings, GMC : No warppoints
Format settings, Matrix : Default (MPEG)
Codec ID : XVID
Codec ID/Hint : XviD
Duration : 2 h 7 min
Bit rate : 1 797 kb/s
Width : 720 pixels
Height : 360 pixels
Display aspect ratio : 2.000
Frame rate : 23.976 (24000/1001) FPS
Color space : YUV
Chroma subsampling : 4:2:0
Bit depth : 8 bits
Scan type : Progressive
Compression mode : Lossy
Bits/(Pixel*Frame) : 0.289
Stream size : 1.60 GiB (85%)
Writing library : XviD 67

Audio
ID : 1
Format : MPEG Audio
Format version : Version 1
Format profile : Layer 3
Format settings : Joint stereo / MS Stereo
Mode : Joint stereo
Mode extension : MS Stereo
Codec ID : 55
Codec ID/Hint : MP3
Duration : 2 h 7 min
Bit rate mode : Constant
Bit rate : 320 kb/s
Channel(s) : 2 channels
Sampling rate : 48.0 kHz
Compression mode : Lossy
Stream size : 292 MiB (15%)
Alignment : Aligned on interleaves
Interleave, duration : 42 ms (1.00 video frame)
Interleave, preload duratio : 504 ms
Writing library : LAME3.100Í

2cc620411698bac1e3b28b2ad074fb4fo - Legado del Diablo [2018] [Latino] [BRScr] [Un link] [UB-1F+]

a70a518890da448d9b245a88231e5996o - Legado del Diablo [2018] [Latino] [BRScr] [Un link] [UB-1F+]

8f316b67e8f3a1523baec7fc4c5eed67o - Legado del Diablo [2018] [Latino] [BRScr] [Un link] [UB-1F+]

Uptobox | Uploaded | Openload | Mexashare | Up-4

http://binbox.io/kFSLP#V1vnkqN1