rendel 732274401 mmed - Rendel [2016] [Latino] [BRScr] [Un link] [UB-1F+]

4001ed1fb97b97f9d603fc67bf7aca86o - Rendel [2016] [Latino] [BRScr] [Un link] [UB-1F+]

Rendel, un nuevo antihéroe enmascarado, busca venganza contra VALA, una enorme organización criminal que, además de haber dañado a su familia, que planea expandir sus actividades ilícitas.

a08d99578407bb6d8c5d8db03a842144o - Rendel [2016] [Latino] [BRScr] [Un link] [UB-1F+]

https://www.youtube.com/watch?v=olRIJTsDUZw

a5b23d5e1e6cbe1b8b59b9d555a4bbc7o - Rendel [2016] [Latino] [BRScr] [Un link] [UB-1F+]

Título original: Rendel
Año: 2016
Duración: 105 min.
País: Finlandia Finlandia
Dirección: Jesse Haaja
Guion: Jesse Haaja, Pekka Lehtosaari, Miika J. Norvanto, Timo Puustinen
Música: Tiko Lasola
Fotografía: Tero Saikkonen
Reparto: Bianca Bradey, Sheila Shah, Kristofer Gummerus, Johnny Vivash, Enni Ojutkangas, Alina Tomnikov, Sami Huhtala, Michael Hall, Aake Kalliala, Rami Rusinen, Renne Korppila, Marko Pesonen, Matti Onnismaa, Reino Nordin, Anu Palevaara
Productora: Bad Beaver Productions / Black Lion Pictures / Frozen Flame Pictures
Género: Acción. Fantástico | Superhéroes

466ed64e9129779a06c941343e8baa56o - Rendel [2016] [Latino] [BRScr] [Un link] [UB-1F+]

General
Complete name : r3nd3l.2017.brrs.720p.latino.mp4
Format : MPEG-4
Format profile : Base Media / Version 2
Codec ID : mp42 (isom/iso2/avc1/mp41)
File size : 1.62 GiB
Duration : 1 h 45 min
Overall bit rate mode : Variable
Overall bit rate : 2 205 kb/s
Encoded date : UTC 2036-02-06 06:28:16
Tagged date : UTC 2036-02-06 06:28:16
Writing application : HandBrake 0.10.2 2015060900

Video
ID : 1
Format : AVC
Format/Info : Advanced Video Codec
Format profile : Main@L4
Format settings : CABAC / 4 Ref Frames
Format settings, CABAC : Yes
Format settings, RefFrames : 4 frames
Codec ID : avc1
Codec ID/Info : Advanced Video Coding
Duration : 1 h 45 min
Bit rate : 2 000 kb/s
Width : 1 280 pixels
Height : 536 pixels
Display aspect ratio : 2.40:1
Frame rate mode : Variable
Frame rate : 23.976 (24000/1001) FPS
Minimum frame rate : 23.810 FPS
Maximum frame rate : 24.390 FPS
Color space : YUV
Chroma subsampling : 4:2:0
Bit depth : 8 bits
Scan type : Progressive
Bits/(Pixel*Frame) : 0.122
Stream size : 1.50 GiB (92%)
Writing library : x264 core 142 r2479 dd79a61
Encoding settings : cabac=1 / ref=1 / deblock=1:0:0 / analyse=0x1:0x111 / me=hex / subme=2 / psy=1 / psy_rd=1.00:0.00 / mixed_ref=0 / me_range=16 / chroma_me=1 / trellis=0 / 8x8dct=0 / cqm=0 / deadzone=21,11 / fast_pskip=1 / chroma_qp_offset=0 / threads=12 / lookahead_threads=4 / sliced_threads=0 / nr=0 / decimate=1 / interlaced=0 / bluray_compat=0 / constrained_intra=0 / bframes=3 / b_pyramid=2 / b_adapt=1 / b_bias=0 / direct=1 / weightb=1 / open_gop=0 / weightp=1 / keyint=240 / keyint_min=24 / scenecut=40 / intra_refresh=0 / rc_lookahead=10 / rc=abr / mbtree=1 / bitrate=2000 / ratetol=1.0 / qcomp=0.60 / qpmin=0 / qpmax=69 / qpstep=4 / vbv_maxrate=20000 / vbv_bufsize=25000 / nal_hrd=none / filler=0 / ip_ratio=1.40 / aq=1:1.00
Encoded date : UTC 2036-02-06 06:28:16
Tagged date : UTC 2036-02-06 06:28:16
Color range : Limited
Color primaries : BT.709
Transfer characteristics : BT.709
Matrix coefficients : BT.709

Audio
ID : 2
Format : AAC
Format/Info : Advanced Audio Codec
Format profile : LC
Codec ID : mp4a-40-2
Duration : 1 h 45 min
Bit rate mode : Variable
Bit rate : 160 kb/s
Channel(s) : 2 channels
Channel positions : Front: L R
Sampling rate : 48.0 kHz
Frame rate : 46.875 FPS (1024 SPF)
Compression mode : Lossy
Stream size : 121 MiB (7%)
Title : Stereo / Stereo
Default : Yes
Alternate group : 1
Encoded date : UTC 2036-02-06 06:28:16
Tagged date : UTC 2036-02-06 06:28:16

2cc620411698bac1e3b28b2ad074fb4fo - Rendel [2016] [Latino] [BRScr] [Un link] [UB-1F+]

0efcc3a3abf3c87a29b3985691264e93o - Rendel [2016] [Latino] [BRScr] [Un link] [UB-1F+]

8f316b67e8f3a1523baec7fc4c5eed67o - Rendel [2016] [Latino] [BRScr] [Un link] [UB-1F+]

Uptobox | Uploaded | Openload | Mexashare | Up-4

http://binbox.io/XzhfV#3pJA3F4M