the predator 896198301 mmed - El depredador [2018] [Latino] [TS] [Un link] [UB-1F+]

4001ed1fb97b97f9d603fc67bf7aca86o - El depredador [2018] [Latino] [TS] [Un link] [UB-1F+]

Desde los confines del espacio hasta los suburbios de las pequeñas ciudades, la búsqueda llega a la casa de la reinvención por Shane Black de la saga "Predator". Ahora, los cazadores más letales del universo son más fuertes, más inteligentes y más mortales que nunca, y se han mejorado genéticamente con ADN de otras especies. Cuando un niño accidentalmente desencadena su regreso a la Tierra, solo un grupo de ex soldados y una profesora de ciencias podrán evitar, quizá el fin de la raza humana...

a08d99578407bb6d8c5d8db03a842144o - El depredador [2018] [Latino] [TS] [Un link] [UB-1F+]

https://www.youtube.com/watch?v=cpPgS_2E9p4

a5b23d5e1e6cbe1b8b59b9d555a4bbc7o - El depredador [2018] [Latino] [TS] [Un link] [UB-1F+]

Título original: The Predator
Año: 2018
Duración: 101 min.
País: Estados Unidos Estados Unidos
Dirección: Shane Black
Guion: Shane Black, Fred Dekker (Personaje: Jim Thomas, John Thomas)
Música: Henry Jackman
Fotografía: Larry Fong
Reparto: Boyd Holbrook, Olivia Munn, Trevante Rhodes, Sterling K. Brown, Jacob Tremblay, Jake Busey, Edward James Olmos, Yvonne Strahovski, Thomas Jane, Keegan-Michael Key, Kyle Strauts, Alfie Allen, Niall Matter, Paul Lazenby, Crystal Mudry, Devielle Johnson, Augusto Aguilera, Andrew Jenkins, Dean Redman, Rhys Williams, Steve Wilder
Productora: 20th Century Fox / Davis Entertainment / TSG Entertainment / Canada Film Capital / Dark Castle Entertainment
Género: Acción. Aventuras. Ciencia ficción | Extraterrestres. Secuela

466ed64e9129779a06c941343e8baa56o - El depredador [2018] [Latino] [TS] [Un link] [UB-1F+]

General
Complete name : The.Predator.TSSCR.Latinook.avi
Format : AVI
Format/Info : Audio Video Interleave
Format profile : OpenDML
File size : 1.61 GiB
Duration : 1 h 39 min
Overall bit rate : 2 303 kb/s
Writing application : Lavf53.32.100
IsTruncated : Yes

Video
ID : 0
Format : AVC
Format/Info : Advanced Video Codec
Format profile : High@L4.1
Format settings : CABAC / 2 Ref Frames
Format settings, CABAC : Yes
Format settings, RefFrames : 2 frames
Codec ID : H264
Duration : 1 h 39 min
Bit rate : 2 100 kb/s
Width : 720 pixels
Height : 314 pixels
Display aspect ratio : 2.25:1
Frame rate : 23.976 (24000/1001) FPS
Color space : YUV
Chroma subsampling : 4:2:0
Bit depth : 8 bits
Scan type : Progressive
Bits/(Pixel*Frame) : 0.387
Stream size : 1.47 GiB (91%)
Writing library : x264 core
Color range : Limited
Color primaries : BT.601 NTSC
Transfer characteristics : BT.709
Matrix coefficients : BT.601

Audio
ID : 1
Format : AC-3
Format/Info : Audio Coding 3
Format settings, Endianness : Big
Codec ID : 2000
Duration : 1 h 39 min
Bit rate mode : Constant
Bit rate : 192 kb/s
Channel(s) : 2 channels
Channel positions : Front: L R
Sampling rate : 48.0 kHz
Frame rate : 31.250 FPS (1536 SPF)
Bit depth : 16 bits
Compression mode : Lossy
Stream size : 137 MiB (8%)
Alignment : Aligned on interleaves
Interleave, duration : 32 ms (0.77 video frame)
Service kind : Complete Main

2cc620411698bac1e3b28b2ad074fb4fo - El depredador [2018] [Latino] [TS] [Un link] [UB-1F+]

e5937f7f3ef03191f461d856044c6292o - El depredador [2018] [Latino] [TS] [Un link] [UB-1F+]

8f316b67e8f3a1523baec7fc4c5eed67o - El depredador [2018] [Latino] [TS] [Un link] [UB-1F+]

Uptobox | Uploaded | Openload | Mexashare | Up-4

http://binbox.io/xrgwl#2vtx0MdA