paradox sha po lang taam long 643788374 mmed - Paradox (Sha po lang: Taam long) [2017] [Latino] [HDRip] [Un link] [UB-1F+]

4001ed1fb97b97f9d603fc67bf7aca86o - Paradox (Sha po lang: Taam long) [2017] [Latino] [HDRip] [Un link] [UB-1F+]

La hija de un policía de Hong Kong desaparece en Tailandia. El policía viaja hasta allí para intentar encontrarla con la ayuda de un oficial tailandés. Juntos se enfrentarán a una organización criminal que parece relacionada con la desaparición.

a08d99578407bb6d8c5d8db03a842144o - Paradox (Sha po lang: Taam long) [2017] [Latino] [HDRip] [Un link] [UB-1F+]

https://www.youtube.com/watch?v=yA-hZeRxOqQ

a5b23d5e1e6cbe1b8b59b9d555a4bbc7o - Paradox (Sha po lang: Taam long) [2017] [Latino] [HDRip] [Un link] [UB-1F+]

Título original: Paradox (Sha po lang: Taam long)
Año: 2017
Duración: 101 min.
País: Hong Kong Hong Kong
Dirección: Wilson Yip
Guion: Nick Cheuk, Jill Leung
Música: Ken Chan, Comfort Chan
Fotografía: Kenny Tse
Reparto: Louis Koo, Wu Yue, Tony Jaa, Chris Collins, Gordon Lam, Michelle Saram, Ken Lo, Stephy Tang, Hanna Chan, Vithaya Pansringarm
Productora: Alibaba Pictures Group / Bona Film Group / Bravos Pictures [Hong Kong]
Género: Acción | Policíaco. Secuestros / Desapariciones. Spin-off

466ed64e9129779a06c941343e8baa56o - Paradox (Sha po lang: Taam long) [2017] [Latino] [HDRip] [Un link] [UB-1F+]

General
Complete name : SPL3.Paradox.HDRip.Latino.avi
Format : AVI
Format/Info : Audio Video Interleave
Format profile : OpenDML
File size : 1.60 GiB
Duration : 1 h 40 min
Overall bit rate : 2 266 kb/s
Writing application : Lavf53.32.100
Original source form/Name : SPL3.Paradox
IsTruncated : Yes

Video
ID : 0
Format : AVC
Format/Info : Advanced Video Codec
Format profile : High@L4.1
Format settings : CABAC / 2 Ref Frames
Format settings, CABAC : Yes
Format settings, RefFrames : 2 frames
Codec ID : H264
Duration : 1 h 40 min
Bit rate : 2 063 kb/s
Width : 720 pixels
Height : 404 pixels
Display aspect ratio : 16:9
Frame rate : 23.976 (24000/1001) FPS
Color space : YUV
Chroma subsampling : 4:2:0
Bit depth : 8 bits
Scan type : Progressive
Bits/(Pixel*Frame) : 0.296
Stream size : 1.45 GiB (91%)
Writing library : x264 core
Color range : Limited
Color primaries : BT.601 NTSC
Transfer characteristics : BT.709
Matrix coefficients : BT.601

Audio
ID : 1
Format : AC-3
Format/Info : Audio Coding 3
Format settings, Endianness : Big
Codec ID : 2000
Duration : 1 h 40 min
Bit rate mode : Constant
Bit rate : 192 kb/s
Channel(s) : 2 channels
Channel positions : Front: L R
Sampling rate : 48.0 kHz
Frame rate : 31.250 FPS (1536 SPF)
Bit depth : 16 bits
Compression mode : Lossy
Stream size : 139 MiB (8%)
Alignment : Aligned on interleaves
Interleave, duration : 32 ms (0.77 video frame)
Service kind : Complete Main

2cc620411698bac1e3b28b2ad074fb4fo - Paradox (Sha po lang: Taam long) [2017] [Latino] [HDRip] [Un link] [UB-1F+]

fd2b4175e20035a185837ceaccbc8401o - Paradox (Sha po lang: Taam long) [2017] [Latino] [HDRip] [Un link] [UB-1F+]

8f316b67e8f3a1523baec7fc4c5eed67o - Paradox (Sha po lang: Taam long) [2017] [Latino] [HDRip] [Un link] [UB-1F+]

Uptobox | Uploaded | Openload | Mexashare | Up-4

http://binbox.io/CRqIQ#xN03QvlC